<?xml version="1.0" standalone="no"?>
<!DOCTYPE svg PUBLIC "-//W3C//DTD SVG 1.1//EN" "http://www.w3.org/Graphics/SVG/1.1/DTD/svg11.dtd" >
<svg xmlns="http://www.w3.org/2000/svg">
<metadata>
This is a custom SVG webfont generated by Font Squirrel.
Copyright   :  2000 2004 Adobe Systems Incorporated All Rights Reserved US Patent D454582
Designer    : Robert Slimbach and Carol Twombly
Foundry URL : httpwwwadobecomtype
</metadata>
<defs>
<font id="MyriadProLight" horiz-adv-x="999" >
<font-face units-per-em="2048" ascent="1536" descent="-512" />
<missing-glyph horiz-adv-x="448" />
<glyph unicode=" "  horiz-adv-x="448" />
<glyph unicode="&#x09;" horiz-adv-x="448" />
<glyph unicode="&#xa0;" horiz-adv-x="448" />
<glyph unicode="!" horiz-adv-x="423" d="M131 68q0 41 22.5 66.5t59.5 25.5t59.5 -25.5t22.5 -66.5q0 -39 -23.5 -65t-60.5 -26h-2q-33 0 -56.5 27t-21.5 64zM152 1380h118l-18 -1018h-82z" />
<glyph unicode="&#x22;" horiz-adv-x="616" d="M123 1417h119l-27 -452h-65zM375 1417h119l-27 -452h-66z" />
<glyph unicode="#" horiz-adv-x="952" d="M76 424v78h180l43 338h-180v78h190l53 413h82l-51 -413h230l53 413h84l-53 -413h170v-78h-181l-41 -338h181v-78h-191l-53 -424h-86l53 424h-227l-53 -424h-86l53 424h-170zM342 502h227l43 338h-229z" />
<glyph unicode="$" d="M147 131l41 76q113 -88 267 -88q121 0 196.5 69.5t75.5 176.5q0 96 -60.5 162.5t-179.5 119.5q-164 72 -241.5 148.5t-77.5 195.5q0 121 79 206t206 103v213h84v-210q141 -4 245 -74l-43 -76q-111 70 -237 70q-119 0 -180.5 -65.5t-61.5 -149.5q0 -92 57.5 -148.5 t200.5 -120.5q154 -70 228.5 -154.5t74.5 -211.5q0 -121 -78.5 -215.5t-220.5 -116.5v-215h-84v213q-178 0 -291 92z" />
<glyph unicode="%" horiz-adv-x="1509" d="M66 938q0 203 86 309.5t204 106.5h2q123 0 199 -101.5t76 -296.5q0 -203 -81 -310t-206 -107q-117 0 -197.5 101t-82.5 298zM154 946q-4 -143 49 -240.5t145 -97.5q100 0 149.5 95.5t49.5 246.5q0 147 -48 240.5t-149 93.5h-2q-90 0 -142 -96.5t-52 -241.5zM315 -27 l795 1385h82l-795 -1385h-82zM877 387q0 203 86 309.5t204 106.5h2q123 0 199 -101.5t76 -295.5q0 -203 -81 -310.5t-206 -107.5q-117 0 -197.5 101t-82.5 298zM965 395q-4 -143 50 -240.5t144 -97.5q100 0 149.5 95.5t49.5 246.5q0 147 -48 240.5t-149 93.5h-2 q-90 0 -142 -96.5t-52 -241.5z" />
<glyph unicode="&#x26;" horiz-adv-x="1146" d="M63 362q0 248 275 408v6q-121 162 -121 301q0 133 85 229.5t226 96.5q113 0 189 -76t76 -199q0 -113 -75 -201.5t-247 -174.5v-7q88 -102 401 -460q96 145 142 444h94q-57 -350 -180 -502q135 -137 219 -227h-123q-25 25 -75 77t-77 81q-186 -180 -419 -181 q-168 0 -279 111.5t-111 273.5zM162 375q0 -137 89 -227.5t224 -90.5h2q203 0 340 158q-31 35 -183.5 207t-250.5 289q-221 -133 -221 -336zM309 1087q0 -125 113 -278q139 72 208.5 143.5t69.5 167.5q0 82 -47 143.5t-139 61.5h-2q-94 0 -148.5 -70t-54.5 -168z" />
<glyph unicode="'" horiz-adv-x="364" d="M123 1417h119l-27 -452h-65z" />
<glyph unicode="(" horiz-adv-x="542" d="M139 583.5q0 481.5 289 843.5h92q-289 -358 -289 -845q0 -459 289 -834h-92q-289 354 -289 835.5z" />
<glyph unicode=")" horiz-adv-x="542" d="M23 -252q289 369 288 842q0 471 -288 837h92q291 -356 291 -839q0 -473 -291 -840h-92z" />
<glyph unicode="*" horiz-adv-x="800" d="M61 1026v96l289 -22v4l-176 246l90 51l135 -266h4l129 268l89 -49l-181 -252v-4l299 24v-96l-297 27v-6l181 -242l-95 -53l-129 268h-4l-141 -270l-80 53l180 246v6z" />
<glyph unicode="+" horiz-adv-x="1220" d="M82 506v82h485v502h88v-502h484v-82h-484v-506h-88v506h-485z" />
<glyph unicode="," horiz-adv-x="356" d="M53 -258q25 66 58.5 203t48.5 231l129 21q-27 -109 -79 -253.5t-79 -191.5z" />
<glyph unicode="-" horiz-adv-x="610" d="M61 520v86h488v-86h-488z" />
<glyph unicode="." horiz-adv-x="356" d="M111 70q0 41 23.5 66.5t60 25.5t59 -25.5t22.5 -66.5q0 -39 -23.5 -66t-59.5 -27h-3q-35 0 -58 28t-21 65z" />
<glyph unicode="/" horiz-adv-x="718" d="M-25 -82l654 1485h100l-657 -1485h-97z" />
<glyph unicode="0" d="M78 659q0 342 127 518.5t309 176.5q184 0 296 -169t112 -501q0 -350 -117 -528.5t-322 -178.5q-170 0 -285.5 172t-119.5 510zM178 657q0 -276 87 -437t233 -161q160 0 240.5 166t80.5 449q0 276 -78.5 438t-240.5 162q-141 0 -231.5 -165t-90.5 -452z" />
<glyph unicode="1" d="M238 1182l251 149h91v-1331h-97v1233h-4l-217 -129z" />
<glyph unicode="2" d="M94 0v61l123 127q301 295 417 456t116 323q0 131 -67 216t-222 85q-150 0 -283 -115l-39 68q147 133 340 133q188 0 279.5 -113t91.5 -254q0 -182 -120 -352t-404 -451l-95 -96v-4h656v-84h-793z" />
<glyph unicode="3" d="M92 68l39 77q127 -84 287 -84q96 0 166.5 31t105.5 80t50.5 97t15.5 100q-2 156 -116 234.5t-275 78.5h-86v80h88q127 0 231 70.5t104 199.5q0 102 -63.5 170t-194.5 68q-137 0 -258 -92l-39 71q53 43 137.5 74t172.5 31q174 0 260 -91.5t86 -218.5q0 -104 -64.5 -188 t-183.5 -127v-4q131 -27 216 -120t85 -232q0 -164 -116.5 -280t-333.5 -116q-193 1 -314 91z" />
<glyph unicode="4" d="M20 391v66l650 874h80v-858h204v-82h-204v-391h-95v391h-635zM137 473h518v539q0 94 7 184l-7 2q-35 -63 -102 -168l-416 -553v-4z" />
<glyph unicode="5" d="M86 63l39 78q117 -80 276 -80q145 0 244.5 97.5t99.5 247.5q-2 152 -99 244.5t-288 92.5q-84 0 -188 -14l86 602h575v-86h-499l-66 -428q51 10 121 10q135 0 248 -57q86 -43 146.5 -133t60.5 -213q0 -197 -129 -322t-318 -125q-194 0 -309 86z" />
<glyph unicode="6" d="M76 537q0 377 217 604q147 154 373 198q72 14 133 15l2 -90q-80 0 -146 -13q-207 -43 -332.5 -202.5t-144.5 -366.5h4q51 80 140.5 133t203.5 53q182 0 290 -119.5t108 -308.5q0 -186 -112 -324.5t-304 -138.5q-188 0 -310 148t-122 412zM174 514q0 -205 89 -330 t251 -125h2q135 0 221 103.5t86 269.5q0 170 -89 261t-232 91q-94 0 -177 -52t-128 -140q-23 -41 -23 -78z" />
<glyph unicode="7" d="M127 1249v82h778v-71l-600 -1260h-96l594 1245v4h-676z" />
<glyph unicode="8" d="M84 332q0 252 278 370l-2 9q-115 49 -170 129t-55 172q0 150 109.5 246t271.5 96t257 -93.5t95 -224.5q0 -215 -233 -321v-8q281 -111 280 -353q0 -166 -122.5 -271.5t-294.5 -105.5q-178 0 -296 101.5t-118 253.5zM184 352q-6 -123 80 -208t234 -85q145 0 232 78t87 203 q0 133 -85 209t-259 125q-139 -41 -214 -126t-75 -196zM231 1026q0 -115 76 -181.5t219 -103.5q244 86 244 287q0 100 -65.5 173t-198.5 73q-127 0 -201 -72t-74 -176z" />
<glyph unicode="9" d="M96 887q0 190 120 328.5t308 138.5q176 0 288 -146.5t112 -408.5q0 -403 -228 -631q-129 -135 -311 -174q-113 -18 -178 -17v91q53 -6 149 10q170 29 291 155q145 162 178 422l-4 -2q-133 -172 -344 -172q-178 0 -279.5 120t-101.5 286zM195 891q0 -147 82.5 -236.5 t216.5 -89.5q102 0 186 48.5t131 125.5q16 29 16 58q0 217 -81.5 346t-239.5 129h-2q-135 0 -222 -107.5t-87 -273.5z" />
<glyph unicode=":" horiz-adv-x="356" d="M111 70q0 41 23.5 66.5t60 25.5t59 -25.5t22.5 -66.5q0 -39 -23.5 -66t-59.5 -27h-3q-35 0 -58 28t-21 65zM111 829q0 41 23.5 68t60 27t59 -27t22.5 -68q0 -39 -23.5 -64.5t-59.5 -25.5h-3q-35 0 -58 26.5t-21 63.5z" />
<glyph unicode=";" horiz-adv-x="356" d="M53 -258q25 66 58.5 203t48.5 231l129 21q-27 -109 -79 -253.5t-79 -191.5zM129 829q0 41 23.5 68t60.5 27t59.5 -27t22.5 -68q0 -39 -23.5 -64.5t-60.5 -25.5h-2q-35 0 -58.5 26.5t-21.5 63.5z" />
<glyph unicode="&#x3c;" horiz-adv-x="1220" d="M145 510v72l930 508v-95l-835 -448v-4l835 -447v-96z" />
<glyph unicode="=" horiz-adv-x="1220" d="M82 317v82h1057v-82h-1057zM82 707v81h1057v-81h-1057z" />
<glyph unicode="&#x3e;" horiz-adv-x="1220" d="M145 0v96l836 447v4l-836 448v95l930 -508v-72z" />
<glyph unicode="?" horiz-adv-x="780" d="M106 1323q104 82 265 82q150 0 230.5 -85t80.5 -206q0 -88 -43 -170t-135 -190q-137 -172 -123 -334l4 -62h-90l-8 54q-27 182 131 374q84 100 120.5 172t36.5 150q0 96 -57 152.5t-166 56.5q-129 0 -209 -64zM254 70q0 41 23.5 66.5t60.5 25.5t59.5 -25.5t22.5 -66.5 q0 -39 -22.5 -66t-61.5 -27h-2q-35 0 -58.5 28t-21.5 65z" />
<glyph unicode="@" horiz-adv-x="1468" d="M78 424q0 330 203.5 560t533.5 230q262 0 421 -166.5t159 -424.5q0 -223 -104.5 -355.5t-243.5 -132.5q-61 0 -104.5 49t-33.5 144h-8q-115 -193 -305 -193q-88 0 -151.5 68.5t-63.5 181.5q0 197 142.5 345.5t344.5 148.5q113 0 205 -39l-74 -367q-53 -260 68 -260 q90 -4 163 107.5t73 283.5q0 242 -133.5 388.5t-368.5 146.5q-266 0 -448.5 -195.5t-182.5 -513.5q0 -252 149.5 -409.5t378.5 -157.5q186 0 318 80l28 -72q-150 -86 -356 -86q-258 0 -434 176t-176 463zM471 383q0 -76 41 -124t117 -48q100 0 187 103.5t110 213.5l51 254 q-61 20 -127 21q-156 0 -267.5 -125t-111.5 -295z" />
<glyph unicode="A" horiz-adv-x="1198" d="M61 0l500 1380h94l498 -1380h-100l-174 483h-547l-170 -483h-101zM362 565h486l-168 461q-33 98 -72 244h-4q-23 -92 -72 -240z" />
<glyph unicode="B" horiz-adv-x="1034" d="M168 2v1360q119 29 276 29q248 0 363 -113q84 -88 84 -227q0 -104 -66.5 -188.5t-171.5 -121.5v-4q111 -25 201 -112.5t90 -239.5q0 -158 -102 -264q-125 -131 -434 -131q-134 0 -240 12zM264 82q51 -10 170 -10q178 0 294 73.5t116 237.5q0 154 -115 232.5t-291 78.5 h-174v-612zM264 774h203q145 0 234.5 77t89.5 193q0 264 -351 265q-123 0 -176 -15v-520z" />
<glyph unicode="C" horiz-adv-x="1167" d="M78 682q0 313 189.5 517t508.5 204q205 0 322 -62l-33 -81q-119 59 -287 59q-281 0 -440.5 -171t-159.5 -468q0 -285 154.5 -451t429.5 -166q184 0 311 64l29 -78q-135 -72 -371 -72q-174 0 -318.5 72t-239.5 236t-95 397z" />
<glyph unicode="D" horiz-adv-x="1325" d="M168 2v1360q182 29 352 29q379 0 557 -189q172 -178 172 -477q0 -326 -180 -524q-195 -211 -596 -211q-186 0 -305 12zM264 82q72 -10 223 -10q326 0 494 171t168 476q2 274 -155.5 432t-479.5 158q-131 0 -250 -21v-1206z" />
<glyph unicode="E" horiz-adv-x="954" d="M168 0v1380h682v-82h-586v-530h553v-82h-553v-604h619v-82h-715z" />
<glyph unicode="F" horiz-adv-x="946" d="M168 0v1380h682v-82h-586v-548h537v-82h-537v-668h-96z" />
<glyph unicode="G" horiz-adv-x="1277" d="M78 686q0 301 190.5 505t528.5 204q188 0 321 -62l-31 -82q-123 59 -294 60q-285 0 -450 -169t-165 -452q0 -291 160 -455.5t434 -164.5q199 0 289 47v487h-322v80h418v-623q-184 -76 -401 -75q-301 0 -490 182q-86 86 -137 220t-51 298z" />
<glyph unicode="H" horiz-adv-x="1290" d="M168 0v1380h96v-606h762v606h96v-1380h-96v690h-762v-690h-96z" />
<glyph unicode="I" horiz-adv-x="432" d="M168 0v1380h96v-1380h-96z" />
<glyph unicode="J" horiz-adv-x="706" d="M14 10l21 80q70 -29 147 -29q141 0 208 84t67 304v931h98v-952q0 -451 -373 -451q-98 0 -168 33z" />
<glyph unicode="K" horiz-adv-x="1019" d="M168 0v1380h96v-698h8q35 49 117 143l490 555h120l-526 -585l576 -795h-119l-524 727l-142 -156v-571h-96z" />
<glyph unicode="L" horiz-adv-x="917" d="M168 0v1380h96v-1298h617v-82h-713z" />
<glyph unicode="M" horiz-adv-x="1593" d="M129 0l100 1380h113l297 -794q109 -299 152 -449h4q43 150 155 447l307 796h117l94 -1380h-96l-41 655q-29 419 -29 589q0 11 1 22h-7q-72 -215 -184 -514l-291 -752h-67l-273 733q-135 375 -178 533h-6q-4 -279 -29 -631l-43 -635h-96z" />
<glyph unicode="N" horiz-adv-x="1306" d="M168 0v1380h92l539 -815q178 -279 258 -434l4 2q-16 213 -17 561v686h97v-1380h-92l-527 803q-201 313 -268 446l-4 -2q12 -205 12 -549v-698h-94z" />
<glyph unicode="O" horiz-adv-x="1374" d="M78 676q0 332 176 529.5t442 197.5q264 0 432 -190.5t168 -507.5q0 -346 -179 -537t-437 -191q-260 0 -431 192t-171 507zM178 680q0 -250 137.5 -435.5t370.5 -185.5q236 0 373 185.5t137 453.5q0 113 -31.5 220.5t-91 199.5t-159 147.5t-224.5 55.5 q-168 0 -286.5 -95.5t-172 -236.5t-53.5 -309z" />
<glyph unicode="P" horiz-adv-x="1028" d="M168 0v1364q129 27 295 27q248 0 364 -117q106 -102 106.5 -270t-95.5 -275q-133 -156 -406 -156q-113 0 -168 17v-590h-96zM264 676q70 -20 176 -21q186 0 291 88t105 252q0 156 -102.5 235t-274.5 79q-121 0 -195 -17v-616z" />
<glyph unicode="Q" horiz-adv-x="1374" d="M78 676q0 336 176 531.5t444 195.5q262 0 430 -191.5t168 -506.5q0 -276 -116.5 -452.5t-317.5 -240.5v-6q307 -72 449 -96l-31 -90q-184 43 -516 137q-57 20 -78 20q-264 6 -436 191.5t-172 507.5zM178 676q0 -248 137.5 -432.5t366.5 -184.5h2q238 0 375 185.5 t137 453.5q0 90 -18.5 177.5t-59.5 168t-99 142t-142 98.5t-183 37q-127 0 -228 -55.5t-162.5 -147.5t-93.5 -204.5t-32 -237.5z" />
<glyph unicode="R" horiz-adv-x="1034" d="M168 0v1362q131 29 297 29q252 0 373 -115q96 -92 96 -246q0 -266 -270 -360v-4q162 -51 213 -293q66 -303 102 -373h-102q-29 59 -89 336q-31 152 -102.5 221.5t-206.5 75.5h-215v-633h-96zM264 713h219q160 0 256.5 82t96.5 219q0 152 -100.5 224.5t-272.5 72.5 q-121 0 -199 -19v-579z" />
<glyph unicode="S" horiz-adv-x="950" d="M86 72l37 82q135 -92 303 -93q152 0 242 79t90 208q0 117 -64.5 190.5t-214.5 133.5q-174 61 -265 152t-91 229q0 152 113.5 251t287.5 99t275 -66l-37 -82q-90 66 -244 66q-152 0 -225.5 -78t-73.5 -174q0 -113 66.5 -181.5t220.5 -127.5q180 -74 264 -164t84 -238 q0 -162 -113.5 -271.5t-324.5 -109.5q-88 0 -182.5 27t-147.5 68z" />
<glyph unicode="T" horiz-adv-x="952" d="M-23 1298v82h1000v-82h-451v-1298h-98v1298h-451z" />
<glyph unicode="U" horiz-adv-x="1282" d="M168 541v839h96v-833q0 -248 101.5 -367t267.5 -119q178 0 281.5 121t103.5 365v833h98v-823q0 -299 -137 -439.5t-352 -140.5q-201 0 -330 134.5t-129 429.5z" />
<glyph unicode="V" horiz-adv-x="1042" d="M0 1380h102l244 -739q113 -336 162 -528h6q47 176 176 528l268 739h105l-512 -1380h-92z" />
<glyph unicode="W" horiz-adv-x="1679" d="M31 1380h98l201 -778q78 -295 114 -473h7q20 123 124 473l228 778h94l205 -772q94 -369 110 -479h7q33 156 124 475l228 776h100l-414 -1380h-94l-209 795q-82 309 -106 469h-4q-29 -168 -123 -467l-234 -797h-94z" />
<glyph unicode="X" horiz-adv-x="1118" d="M61 0l439 700l-420 680h113l221 -368q96 -154 143 -236h4q39 70 146 236l231 368h115l-443 -671l445 -709h-113l-209 340q-121 180 -180 287h-6q-63 -117 -174 -289l-197 -338h-115z" />
<glyph unicode="Y" horiz-adv-x="1030" d="M31 1380h110l228 -411q145 -276 155 -297h4q39 86 160 299l236 409h110l-467 -784v-596h-96v598z" />
<glyph unicode="Z" horiz-adv-x="1103" d="M70 0v66l831 1226v6h-764v82h889v-65l-833 -1227v-6h843v-82h-966z" />
<glyph unicode="[" horiz-adv-x="542" d="M184 -229v1634h348v-76h-260v-1483h260v-75h-348z" />
<glyph unicode="\" horiz-adv-x="712" d="M-10 1403h98l647 -1485h-96z" />
<glyph unicode="]" horiz-adv-x="542" d="M10 -154h260v1483h-260v76h350v-1634h-350v75z" />
<glyph unicode="^" horiz-adv-x="1220" d="M147 401l418 930h90l420 -930h-94l-369 836h-4l-366 -836h-95z" />
<glyph unicode="_" horiz-adv-x="1024" d="M0 -154h1024v-102h-1024v102z" />
<glyph unicode="`" horiz-adv-x="614" d="M68 1409h143l182 -283h-76z" />
<glyph unicode="a" horiz-adv-x="929" d="M80 248q0 174 152 268q149 92 435 92h13v25q0 291 -248 291h-4q-145 0 -246 -74l-30 72q125 84 286 84q338 0 338 -390v-383q0 -127 15 -233h-89l-14 141h-6q-41 -66 -123 -115t-190 -49q-137 0 -213 81t-76 190zM182 264q0 -100 56.5 -152.5t140.5 -52.5 q113 0 186.5 57.5t104.5 139.5q10 35 10 59v211q-25 1 -48 1q-450 0 -450 -263z" />
<glyph unicode="b" horiz-adv-x="1130" d="M158 0q8 139 8 229v1225h96v-653h4q106 205 361 205q186 0 303 -140.5t117 -363.5q0 -248 -131.5 -386.5t-307.5 -138.5q-238 0 -352 201h-4l-6 -178h-88zM262 379q0 -23 8 -72q33 -113 121 -180.5t203 -67.5q166 0 260 122t94 319q0 178 -93 302t-253 124 q-111 0 -202 -72t-126 -192q-12 -49 -12 -87v-196z" />
<glyph unicode="c" horiz-adv-x="913" d="M84 481q0 231 142.5 378t365.5 147q168 0 258 -62l-35 -80q-106 57 -233 58q-188 0 -294 -125t-106 -310q0 -190 108.5 -307t280.5 -117q115 0 246 56l27 -76q-125 -66 -287 -66q-213 0 -343 140.5t-130 363.5z" />
<glyph unicode="d" horiz-adv-x="1114" d="M84 481q0 234 127 378q129 146 315 147q119 0 201 -50.5t121 -121.5h4v620h96v-1225q0 -90 8 -229h-88l-6 186h-4q-43 -90 -132 -149.5t-218 -59.5q-182 0 -303 139.5t-121 364.5zM182 483q0 -178 89 -301t255 -123q109 0 197 69t119 187q10 45 10 82v197q0 45 -10 90 q-27 102 -111 172t-199 70q-160 0 -255 -124t-95 -319z" />
<glyph unicode="e" horiz-adv-x="993" d="M84 473q0 242 124 387.5t318 145.5q92 0 163 -33t112 -82t66.5 -112.5t33.5 -116t8 -101.5q0 -43 -4 -59h-725q0 -223 104.5 -331t270.5 -108q158 0 272 56l25 -78q-115 -63 -309 -64q-209 0 -334 138.5t-125 357.5zM186 580h621q0 57 -12.5 112.5t-43 110.5t-92 89 t-145.5 34q-147 0 -230.5 -105.5t-97.5 -240.5z" />
<glyph unicode="f" horiz-adv-x="536" d="M31 905v78h141v53q0 246 109 355q86 86 217 86q90 0 147 -33l-31 -78q-53 29 -125 29q-125 0 -173 -96.5t-48 -260.5v-55h264v-78h-264v-905h-96v905h-141z" />
<glyph unicode="g" horiz-adv-x="1114" d="M84 483q0 242 133 382.5t309 140.5q238 0 332 -189h4l4 166h90q-8 -147 -8 -254v-586q0 -328 -133 -454q-123 -117 -334 -117q-199 0 -311 84l35 78q129 -82 291 -82q166 0 261 96t95 303v139h-4q-43 -82 -130 -136t-212 -54q-184 0 -303 139t-119 344zM182 494 q0 -176 91.5 -294t256.5 -118q100 0 183.5 58.5t120.5 162.5q18 49 18 105v198q0 51 -12 94q-33 96 -113 161t-192 65q-158 0 -255.5 -118.5t-97.5 -313.5z" />
<glyph unicode="h" horiz-adv-x="1097" d="M166 0v1454h96v-647h4q47 92 135 143q88 55 199 56q35 0 72 -7.5t87 -34t88 -68.5t65.5 -120t27.5 -182v-594h-96v582q0 147 -64.5 243.5t-206.5 96.5q-102 0 -184 -64.5t-113 -159.5q-14 -41 -14 -96v-602h-96z" />
<glyph unicode="i" horiz-adv-x="428" d="M135 1263.5q0 34.5 23.5 60.5t56.5 26q35 0 56.5 -25t21.5 -61q0 -35 -22.5 -59.5t-59.5 -24.5q-33 0 -54.5 24.5t-21.5 59zM166 0v983h96v-983h-96z" />
<glyph unicode="j" horiz-adv-x="438" d="M-100 -348q141 6 204 82q41 49 57.5 131t16.5 268v850h96v-915q0 -143 -21.5 -233.5t-82.5 -156.5q-47 -53 -123 -79.5t-135 -26.5zM147 1264q0 35 24 60.5t58 25.5q33 0 54.5 -26t21.5 -60.5t-21.5 -59t-60.5 -24.5q-33 0 -54.5 25.5t-21.5 58.5z" />
<glyph unicode="k" horiz-adv-x="866" d="M166 0v1454h96v-944h4q33 41 96 108l347 365h118l-397 -408l453 -575h-119l-402 516l-100 -106v-410h-96z" />
<glyph unicode="l" horiz-adv-x="434" d="M166 0v1454h96v-1454h-96z" />
<glyph unicode="m" horiz-adv-x="1677" d="M158 983h90l8 -174h4q106 197 318 197q100 0 175.5 -59.5t106.5 -155.5h4q41 82 101 133q98 82 235 82q45 0 92 -15.5t102.5 -56.5t90.5 -132t35 -222v-580h-97v569q0 168 -65.5 260.5t-190.5 92.5q-88 0 -158.5 -56.5t-99.5 -138.5q-18 -51 -18 -96v-631h-96v614 q0 137 -64.5 222.5t-179.5 85.5q-94 0 -169 -64.5t-103 -157.5q-16 -43 -17 -94v-606h-96v748q0 79 -8 235z" />
<glyph unicode="n" horiz-adv-x="1097" d="M158 983h90l8 -178h4q43 88 132 144.5t206 56.5q35 0 73 -7.5t88 -34t88 -68.5t65.5 -122t27.5 -184v-590h-96v582q0 150 -65.5 245t-207.5 95q-102 0 -183 -63.5t-112 -162.5q-14 -43 -14 -88v-608h-96v748q0 79 -8 235z" />
<glyph unicode="o" horiz-adv-x="1089" d="M84 483q0 242 136 382.5t329 140.5q205 0 331 -139.5t126 -364.5q0 -256 -142.5 -390.5t-328.5 -134.5q-195 0 -323 139.5t-128 366.5zM182 489q0 -184 103.5 -307t255.5 -123q156 0 261 124t105 313q0 160 -92 295t-268 135t-270.5 -131.5t-94.5 -305.5z" />
<glyph unicode="p" horiz-adv-x="1130" d="M158 983h92l8 -186h4q111 209 363 209q188 0 305 -140.5t117 -357.5q0 -252 -129.5 -391.5t-317.5 -139.5q-229 0 -334 183h-4v-566h-96v1076q0 129 -8 313zM262 387q0 -29 8 -78q31 -113 120 -181.5t204 -68.5q166 0 260 122t94 323q0 176 -93 299t-253 123 q-111 0 -203 -72t-123 -190q-14 -61 -14 -84v-193z" />
<glyph unicode="q" horiz-adv-x="1110" d="M84 473q0 180 71.5 305t171 176.5t210.5 51.5q119 0 201.5 -54.5t119.5 -136.5h4l4 168h90q-8 -147 -8 -254v-1135h-96v576h-6q-39 -82 -127 -137.5t-211 -55.5q-182 0 -303 139.5t-121 356.5zM182 485q0 -180 87 -303t257 -123q102 0 185.5 59.5t122.5 170.5 q18 51 18 96v211q0 43 -10 90q-27 102 -110 171t-197 69q-160 0 -256.5 -123t-96.5 -318z" />
<glyph unicode="r" horiz-adv-x="604" d="M158 983h90l4 -199h4q35 96 108.5 159t172.5 63q14 0 38 -5v-94q-14 4 -47 4q-98 0 -167.5 -76.5t-90.5 -197.5q-8 -57 -8 -94v-543h-96v688q0 107 -8 295z" />
<glyph unicode="s" horiz-adv-x="763" d="M90 47l35 82q111 -68 221 -68q113 0 171 52.5t58 134.5q0 80 -48 129t-158 94q-250 94 -250 268q0 111 82 189t221 78q127 0 217 -62l-39 -80q-80 59 -194 60q-90 0 -140.5 -49.5t-50.5 -121t47 -114.5t156 -88q127 -49 190.5 -116.5t63.5 -174.5q0 -127 -91.5 -205 t-240.5 -78q-139 0 -250 70z" />
<glyph unicode="t" horiz-adv-x="632" d="M37 905v78h166v180l98 37v-217h281v-78h-281v-639q0 -205 143 -205q63 0 113 17l12 -76q-55 -25 -137 -25q-113 0 -168 72q-61 70 -61 234v622h-166z" />
<glyph unicode="u" horiz-adv-x="1087" d="M158 412v571h96v-553q0 -367 262 -367q100 0 177 58.5t112 140.5q20 61 20 109v612h97v-743q0 -88 8 -240h-90l-6 174h-5q-43 -80 -130 -138.5t-207 -58.5q-55 0 -106.5 16.5t-107 59.5t-88 135.5t-32.5 223.5z" />
<glyph unicode="v" horiz-adv-x="925" d="M31 983h104l230 -610q57 -139 96 -262h4q18 53 100 262l234 610h102l-399 -983h-86z" />
<glyph unicode="w" horiz-adv-x="1478" d="M47 983h100l164 -559q61 -199 84 -307h6q41 147 99 307l196 559h92l189 -555q53 -164 96 -311h4q20 90 88 309l176 557h101l-328 -983h-86l-184 547q-63 178 -103 336h-4q-35 -139 -106 -338l-197 -545h-86z" />
<glyph unicode="x" horiz-adv-x="878" d="M23 0l360 502l-340 481h111l168 -240q49 -66 112 -168h4q47 72 115 168l168 240h108l-342 -479l355 -504h-111l-176 250q-51 72 -123 184h-4q-41 -70 -123 -184l-172 -250h-110z" />
<glyph unicode="y" horiz-adv-x="901" d="M23 983h104l258 -643q43 -113 72 -211h4q51 150 76 217l239 637h105l-295 -733q-98 -252 -170 -386t-162 -214q-88 -74 -172 -103l-31 82q98 37 172 109q102 102 164 248q12 35 12 43q0 12 -12 43z" />
<glyph unicode="z" horiz-adv-x="825" d="M33 0v59l528 699q20 27 58 74t55 67v4h-598v80h717l-2 -65l-529 -697q-16 -25 -51 -70t-53 -67v-4h637v-80h-762z" />
<glyph unicode="{" horiz-adv-x="542" d="M55 553v72q100 -2 136 43t36 118q0 47 -18 177q-20 119 -21 178q0 133 79 198.5t210 65.5h25v-76h-37q-100 -2 -143 -50t-43 -146q0 -43 18 -164q18 -100 18 -164q2 -172 -131 -211v-4q133 -43 131 -215q0 -68 -18 -164q-18 -125 -18 -166q0 -197 186 -199h37v-75h-25 q-131 0 -210 67.5t-79 214.5q0 59 21 170q18 129 18 170q0 164 -172 160z" />
<glyph unicode="|" horiz-adv-x="434" d="M174 -512v2048h86v-2048h-86z" />
<glyph unicode="}" horiz-adv-x="542" d="M41 -154h37q186 2 186 199q0 66 -18 166q-18 121 -19 164q0 174 131 215v4q-131 39 -131 211q0 39 19 164q18 96 18 164q0 98 -43 146t-143 50h-37v76h25q131 0 209.5 -65.5t78.5 -198.5q0 -72 -18 -178q-20 -115 -21 -177q0 -74 36 -118.5t138 -42.5v-72 q-174 4 -174 -160q0 -55 21 -170q18 -100 18 -170q0 -147 -78.5 -214.5t-209.5 -67.5h-25v75z" />
<glyph unicode="~" horiz-adv-x="1220" d="M106 455q-8 117 57.5 190.5t162.5 73.5q55 0 110.5 -18.5t181.5 -71.5q203 -90 291 -90q129 0 129 176h76q6 -131 -56.5 -196.5t-156.5 -65.5q-98 0 -301 86q-14 6 -57 25.5t-61.5 26.5t-50.5 19.5t-57.5 16.5t-51.5 4q-137 0 -138 -176h-78z" />
<glyph unicode="&#xa2;" d="M127 666q0 205 113.5 342t294.5 159v213h81v-211q137 0 242 -57l-37 -82q-94 61 -233 62q-164 0 -265.5 -124t-101.5 -298q0 -186 99.5 -298t254.5 -112q135 0 254 59l27 -71q-92 -59 -240 -68v-213h-81v213q-178 16 -291 135q-117 124 -117 351z" />
<glyph unicode="&#xa3;" d="M121 0v63q115 61 175 165t60 229q0 96 -12 182h-217v78h209q-29 158 -29 254q0 172 99.5 277.5t250.5 105.5q133 0 211 -51l-32 -76q-76 45 -189 45q-123 0 -184.5 -79t-61.5 -216q0 -100 27 -260h303v-78h-293q20 -184 -2 -283q-35 -160 -166 -268v-4h652v-84h-801z" />
<glyph unicode="&#xa5;" d="M51 1331h105l254 -479q47 -88 82 -164h6q20 61 80 170l266 473h102l-375 -645h279v-74h-318v-159h318v-74h-318v-379h-94v379h-315v74h315v159h-315v74h278z" />
<glyph unicode="&#xa8;" horiz-adv-x="614" d="M57 1263.5q0 32.5 22.5 56t55.5 23.5q31 0 52.5 -23.5t21.5 -56t-20.5 -56t-55.5 -23.5h-2q-33 0 -53.5 23.5t-20.5 56zM406 1263.5q0 32.5 22.5 56t54.5 23.5q31 0 52.5 -23.5t21.5 -56t-20.5 -56t-55.5 -23.5h-2q-33 0 -53 23.5t-20 56z" />
<glyph unicode="&#xa9;" horiz-adv-x="1386" d="M80 696q0 262 178 446.5t438 184.5h2q256 0 433.5 -184.5t177.5 -446.5q0 -266 -177.5 -450.5t-435.5 -184.5q-260 0 -438 184.5t-178 450.5zM162 688q0 -238 152.5 -399.5t381.5 -161.5q223 -2 376 162t153 407q0 240 -152.5 403t-376.5 163h-2q-227 0 -379.5 -164 t-152.5 -410zM358 684q0 168 114 274.5t273 106.5q158 0 226 -53l-21 -64q-86 49 -202 49q-152 0 -229 -86t-77 -221q0 -133 80 -221t230 -88q129 0 211 55l20 -59q-92 -63 -252 -64q-172 0 -272.5 105.5t-100.5 265.5z" />
<glyph unicode="&#xab;" horiz-adv-x="802" d="M61 516l293 369h101l-291 -369l293 -369h-103zM360 516l291 369h103l-293 -369l293 -369h-103z" />
<glyph unicode="&#xad;" horiz-adv-x="610" d="M61 520v86h488v-86h-488z" />
<glyph unicode="&#xae;" horiz-adv-x="808" d="M72 1071q0 137 97 231.5t237 94.5h2q139 0 234 -94.5t95 -231.5q0 -139 -96 -234.5t-235.5 -95.5t-236.5 95.5t-97 234.5zM143 1071q0 -115 76 -192.5t189 -77.5q109 -2 182.5 76.5t73.5 191.5t-74 191.5t-184 78.5h-3q-111 0 -185.5 -78.5t-74.5 -189.5zM283 891v342 q57 10 118 10q72 0 109 -26q35 -25 35 -72q0 -59 -68 -82v-4q41 -16 58 -82q12 -70 24 -86h-65q-14 16 -27 90q-12 53 -80 53h-41v-143h-63zM346 1083h43q88 0 88 55.5t-82 55.5q-29 0 -49 -4v-107z" />
<glyph unicode="&#xb4;" horiz-adv-x="614" d="M240 1126l182 283h143l-250 -283h-75z" />
<glyph unicode="&#xb8;" horiz-adv-x="614" d="M123 -373l24 70q45 -27 111 -27q43 0 70.5 16.5t25.5 55.5q-2 78 -159 92l102 168h76l-74 -113q57 -8 98 -45t41 -92q0 -80 -54 -119t-138 -39q-74 0 -123 33z" />
<glyph unicode="&#xbb;" horiz-adv-x="802" d="M47 885h103l292 -369l-292 -369h-101l291 369zM346 885h100l295 -369l-292 -369h-101l291 369z" />
<glyph unicode="&#xc1;" horiz-adv-x="1198" d="M61 0l500 1380h94l498 -1380h-100l-174 483h-547l-170 -483h-101zM362 565h486l-168 461q-33 98 -72 244h-4q-23 -92 -72 -240zM526 1454l201 232h150l-269 -232h-82z" />
<glyph unicode="&#xc4;" horiz-adv-x="1198" d="M61 0l500 1380h94l498 -1380h-100l-174 483h-547l-170 -483h-101zM356 1563q0 33 22.5 56t55.5 23t54.5 -23.5t21.5 -55.5q0 -35 -21.5 -58.5t-56.5 -23.5h-2q-33 0 -53.5 23.5t-20.5 58.5zM362 565h486l-168 461q-33 98 -72 244h-4q-23 -92 -72 -240zM709 1563 q0 33 22.5 56t55 23t54 -23.5t21.5 -55.5q0 -35 -21.5 -58.5t-56.5 -23.5h-2q-33 0 -53 23.5t-20 58.5z" />
<glyph unicode="&#xc9;" horiz-adv-x="954" d="M168 0v1380h682v-82h-586v-530h553v-82h-553v-604h619v-82h-715zM436 1454l201 232h149l-268 -232h-82z" />
<glyph unicode="&#xcd;" horiz-adv-x="432" d="M135 1454l201 232h149l-268 -232h-82zM168 0v1380h96v-1380h-96z" />
<glyph unicode="&#xd3;" horiz-adv-x="1374" d="M78 676q0 332 176 529.5t442 197.5q264 0 432 -190.5t168 -507.5q0 -346 -179 -537t-437 -191q-260 0 -431 192t-171 507zM178 680q0 -250 137.5 -435.5t370.5 -185.5q236 0 373 185.5t137 453.5q0 113 -31.5 220.5t-91 199.5t-159 147.5t-224.5 55.5 q-168 0 -286.5 -95.5t-172 -236.5t-53.5 -309zM600 1462l201 232h149l-268 -232h-82z" />
<glyph unicode="&#xd4;" horiz-adv-x="1374" d="M78 676q0 332 176 529.5t442 197.5q264 0 432 -190.5t168 -507.5q0 -346 -179 -537t-437 -191q-260 0 -431 192t-171 507zM178 680q0 -250 137.5 -435.5t370.5 -185.5q236 0 373 185.5t137 453.5q0 113 -31.5 220.5t-91 199.5t-159 147.5t-224.5 55.5 q-168 0 -286.5 -95.5t-172 -236.5t-53.5 -309zM434 1462l213 224h78l219 -224h-108l-148 152h-4l-147 -152h-103z" />
<glyph unicode="&#xda;" horiz-adv-x="1282" d="M168 541v839h96v-833q0 -248 101.5 -367t267.5 -119q178 0 281.5 121t103.5 365v833h98v-823q0 -299 -137 -439.5t-352 -140.5q-201 0 -330 134.5t-129 429.5zM573 1454l201 232h150l-269 -232h-82z" />
<glyph unicode="&#xdd;" horiz-adv-x="1030" d="M31 1380h110l228 -411q145 -276 155 -297h4q39 86 160 299l236 409h110l-467 -784v-596h-96v598zM457 1438l200 231h150l-268 -231h-82z" />
<glyph unicode="&#xe1;" horiz-adv-x="929" d="M80 248q0 174 152.5 268t447.5 92v25q0 293 -252 291q-145 0 -246 -74l-30 72q125 84 286 84q338 0 338 -390v-383q0 -127 15 -233h-89l-14 141h-6q-41 -66 -123 -115t-190 -49q-137 0 -213 81t-76 190zM182 264q0 -100 56.5 -152.5t140.5 -52.5q113 0 186.5 57.5 t104.5 139.5q10 35 10 59v211q-498 14 -498 -262zM375 1126l182 283h143l-249 -283h-76z" />
<glyph unicode="&#xe4;" horiz-adv-x="929" d="M80 248q0 174 152.5 268t447.5 92v25q0 293 -252 291q-145 0 -246 -74l-30 72q125 84 286 84q338 0 338 -390v-383q0 -127 15 -233h-89l-14 141h-6q-41 -66 -123 -115t-190 -49q-137 0 -213 81t-76 190zM182 264q0 -100 56.5 -152.5t140.5 -52.5q113 0 186.5 57.5 t104.5 139.5q10 35 10 59v211q-498 14 -498 -262zM215 1263.5q0 32.5 22.5 56t55.5 23.5q31 0 52.5 -23.5t21.5 -56t-20.5 -56t-55.5 -23.5h-2q-33 0 -53.5 23.5t-20.5 56zM563 1263.5q0 32.5 22.5 56t55.5 23.5q31 0 52.5 -23.5t21.5 -56t-20.5 -56t-55.5 -23.5h-2 q-33 0 -53.5 23.5t-20.5 56z" />
<glyph unicode="&#xe9;" horiz-adv-x="993" d="M84 473q0 242 124 387.5t318 145.5q92 0 163 -33t112 -82t66.5 -112.5t33.5 -116t8 -101.5q0 -43 -4 -59h-725q0 -223 104.5 -331t270.5 -108q158 0 272 56l25 -78q-115 -63 -309 -64q-209 0 -334 138.5t-125 357.5zM186 580h621q0 57 -12.5 112.5t-43 110.5t-92 89 t-145.5 34q-147 0 -230.5 -105.5t-97.5 -240.5zM444 1126l183 283h143l-250 -283h-76z" />
<glyph unicode="&#xed;" horiz-adv-x="428" d="M131 1126l182 283h144l-250 -283h-76zM166 0v983h96v-983h-96z" />
<glyph unicode="&#xf3;" horiz-adv-x="1089" d="M84 483q0 242 136 382.5t329 140.5q205 0 331 -139.5t126 -364.5q0 -256 -142.5 -390.5t-328.5 -134.5q-195 0 -323 139.5t-128 366.5zM182 489q0 -184 103.5 -307t255.5 -123q156 0 261 124t105 313q0 160 -92 295t-268 135t-270.5 -131.5t-94.5 -305.5zM453 1126 l182 283h143l-250 -283h-75z" />
<glyph unicode="&#xf4;" horiz-adv-x="1089" d="M84 483q0 242 136 382.5t329 140.5q205 0 331 -139.5t126 -364.5q0 -256 -142.5 -390.5t-328.5 -134.5q-195 0 -323 139.5t-128 366.5zM182 489q0 -184 103.5 -307t255.5 -123q156 0 261 124t105 313q0 160 -92 295t-268 135t-270.5 -131.5t-94.5 -305.5zM319 1126 l187 283h72l192 -283h-98l-127 205h-4l-129 -205h-93z" />
<glyph unicode="&#xfa;" horiz-adv-x="1087" d="M158 412v571h96v-553q0 -367 262 -367q100 0 177 58.5t112 140.5q20 61 20 109v612h97v-743q0 -88 8 -240h-90l-6 174h-5q-43 -80 -130 -138.5t-207 -58.5q-55 0 -106.5 16.5t-107 59.5t-88 135.5t-32.5 223.5zM481 1126l183 283h143l-250 -283h-76z" />
<glyph unicode="&#xfd;" horiz-adv-x="901" d="M23 983h104l258 -643q43 -113 72 -211h4q51 150 76 217l239 637h105l-295 -733q-98 -252 -170 -386t-162 -214q-88 -74 -172 -103l-31 82q98 37 172 109q102 102 164 248q12 35 12 43q0 12 -12 43zM387 1126l182 283h144l-250 -283h-76z" />
<glyph unicode="&#x10c;" horiz-adv-x="1167" d="M78 682q0 313 189.5 517t508.5 204q205 0 322 -62l-33 -81q-119 59 -287 59q-281 0 -440.5 -171t-159.5 -468q0 -285 154.5 -451t429.5 -166q184 0 311 64l29 -78q-135 -72 -371 -72q-174 0 -318.5 72t-239.5 236t-95 397zM455 1686h108l150 -152h4l145 152h103 l-213 -224h-78z" />
<glyph unicode="&#x10d;" horiz-adv-x="913" d="M84 481q0 231 142.5 378t365.5 147q168 0 258 -62l-35 -80q-106 57 -233 58q-188 0 -294 -125t-106 -310q0 -190 108.5 -307t280.5 -117q115 0 246 56l27 -76q-125 -66 -287 -66q-213 0 -343 140.5t-130 363.5zM297 1409h96l133 -205h4l132 205h92l-187 -283h-80z" />
<glyph unicode="&#x10e;" horiz-adv-x="1325" d="M168 2v1360q182 29 352 29q379 0 557 -189q172 -178 172 -477q0 -326 -180 -524q-195 -211 -596 -211q-186 0 -305 12zM264 82q72 -10 223 -10q326 0 494 171t168 476q2 274 -155.5 432t-479.5 158q-131 0 -250 -21v-1206zM356 1683h109l149 -151h4l146 151h102 l-213 -223h-78z" />
<glyph unicode="&#x10f;" horiz-adv-x="1134" d="M84 473q-2 240 127 386.5t315 146.5q119 0 201 -50.5t121 -121.5h4v620h96v-1225q0 -90 8 -229h-88l-6 186h-4q-43 -90 -132 -149.5t-218 -59.5q-182 0 -303 139.5t-121 356.5zM182 483q0 -178 89 -301t255 -123q109 0 197 69t119 187q10 45 10 82v197q0 45 -10 90 q-27 102 -111 172t-199 70q-160 0 -255 -124t-95 -319zM1047 1149q84 70 83 166q0 78 -77 129l88 24q78 -47 78 -145q0 -131 -134 -219z" />
<glyph unicode="&#x11a;" horiz-adv-x="954" d="M168 0v1380h682v-82h-586v-530h553v-82h-553v-604h619v-82h-715zM252 1677h108l150 -151h4l145 151h103l-213 -223h-78z" />
<glyph unicode="&#x11b;" horiz-adv-x="993" d="M84 473q0 242 124 387.5t318 145.5q92 0 163 -33t112 -82t66.5 -112.5t33.5 -116t8 -101.5q0 -43 -4 -59h-725q0 -223 104.5 -331t270.5 -108q158 0 272 56l25 -78q-115 -63 -309 -64q-209 0 -334 138.5t-125 357.5zM186 580h621q0 57 -12.5 112.5t-43 110.5t-92 89 t-145.5 34q-147 0 -230.5 -105.5t-97.5 -240.5zM272 1409h97l133 -205h4l131 205h92l-186 -283h-80z" />
<glyph unicode="&#x139;" horiz-adv-x="917" d="M168 0v1380h96v-1298h617v-82h-713zM184 1454l201 232h150l-269 -232h-82z" />
<glyph unicode="&#x13a;" horiz-adv-x="434" d="M127 1513l201 232h149l-268 -232h-82zM166 0v1454h96v-1454h-96z" />
<glyph unicode="&#x13d;" horiz-adv-x="917" d="M168 0v1380h96v-1298h617v-82h-713zM463 1110q166 25 166 139q0 72 -76 125l82 25q33 -20 57.5 -59.5t24.5 -84.5q0 -94 -69.5 -142t-158.5 -56z" />
<glyph unicode="&#x13e;" horiz-adv-x="448" d="M166 0v1454h96v-1454h-96zM350 1149q84 70 84 166q0 78 -78 129l88 24q78 -47 78 -145q0 -131 -133 -219z" />
<glyph unicode="&#x147;" horiz-adv-x="1306" d="M168 0v1380h92l539 -815q178 -279 258 -434l4 2q-16 213 -17 561v686h97v-1380h-92l-527 803q-201 313 -268 446l-4 -2q12 -205 12 -549v-698h-94zM397 1661h109l149 -152h4l146 152h102l-213 -223h-78z" />
<glyph unicode="&#x148;" horiz-adv-x="1097" d="M158 983h90l8 -178h4q43 88 132 144.5t206 56.5q35 0 73 -7.5t88 -34t88 -68.5t65.5 -122t27.5 -184v-590h-96v582q0 150 -65.5 245t-207.5 95q-102 0 -183 -63.5t-112 -162.5q-14 -43 -14 -88v-608h-96v748q0 79 -8 235zM322 1409h96l133 -205h4l131 205h92l-186 -283 h-80z" />
<glyph unicode="&#x154;" horiz-adv-x="1034" d="M168 0v1362q131 29 297 29q252 0 373 -115q96 -92 96 -246q0 -266 -270 -360v-4q162 -51 213 -293q66 -303 102 -373h-102q-29 59 -89 336q-31 152 -102.5 221.5t-206.5 75.5h-215v-633h-96zM264 713h219q160 0 256.5 82t96.5 219q0 152 -100.5 224.5t-272.5 72.5 q-121 0 -199 -19v-579zM426 1462l201 232h149l-268 -232h-82z" />
<glyph unicode="&#x155;" horiz-adv-x="604" d="M158 983h90l4 -199h4q35 96 108.5 159t172.5 63q14 0 38 -5v-94q-14 4 -47 4q-98 0 -167.5 -76.5t-90.5 -197.5q-8 -57 -8 -94v-543h-96v688q0 107 -8 295zM266 1126l183 283h143l-250 -283h-76z" />
<glyph unicode="&#x158;" horiz-adv-x="1034" d="M168 0v1362q131 29 297 29q252 0 373 -115q96 -92 96 -246q0 -266 -270 -360v-4q162 -51 213 -293q66 -303 102 -373h-102q-29 59 -89 336q-31 152 -102.5 221.5t-206.5 75.5h-215v-633h-96zM248 1686h108l150 -152h4l145 152h103l-213 -224h-78zM264 713h219 q160 0 256.5 82t96.5 219q0 152 -100.5 224.5t-272.5 72.5q-121 0 -199 -19v-579z" />
<glyph unicode="&#x159;" horiz-adv-x="604" d="M119 1409h96l133 -205h4l131 205h92l-186 -283h-80zM158 983h90l4 -199h4q35 96 108.5 159t172.5 63q14 0 38 -5v-94q-14 4 -47 4q-98 0 -167.5 -76.5t-90.5 -197.5q-8 -57 -8 -94v-543h-96v688q0 107 -8 295z" />
<glyph unicode="&#x160;" horiz-adv-x="950" d="M86 72l37 82q135 -92 303 -93q152 0 242 79t90 208q0 117 -64.5 190.5t-214.5 133.5q-174 61 -265 152t-91 229q0 152 113.5 251t287.5 99t275 -66l-37 -82q-90 66 -244 66q-152 0 -225.5 -78t-73.5 -174q0 -113 66.5 -181.5t220.5 -127.5q180 -74 264 -164t84 -238 q0 -162 -113.5 -271.5t-324.5 -109.5q-88 0 -182.5 27t-147.5 68zM244 1686h108l150 -152h4l145 152h103l-213 -224h-78z" />
<glyph unicode="&#x161;" horiz-adv-x="763" d="M90 47l35 82q111 -68 221 -68q113 0 171 52.5t58 134.5q0 80 -48 129t-158 94q-250 94 -250 268q0 111 82 189t221 78q127 0 217 -62l-39 -80q-80 59 -194 60q-90 0 -140.5 -49.5t-50.5 -121t47 -114.5t156 -88q127 -49 190.5 -116.5t63.5 -174.5q0 -127 -91.5 -205 t-240.5 -78q-139 0 -250 70zM164 1409h96l133 -205h4l131 205h93l-187 -283h-80z" />
<glyph unicode="&#x164;" horiz-adv-x="952" d="M-23 1298v82h1000v-82h-451v-1298h-98v1298h-451zM221 1677h109l149 -151h4l146 151h102l-213 -223h-78z" />
<glyph unicode="&#x165;" horiz-adv-x="653" d="M37 905v78h166v180l98 37v-217h281v-78h-281v-639q0 -205 143 -205q63 0 113 17l12 -76q-55 -25 -137 -25q-113 0 -168 72q-61 70 -61 234v622h-166zM463 1157q84 70 84 162q0 76 -78 125l88 24q31 -16 54.5 -55t23.5 -86q0 -127 -133 -215z" />
<glyph unicode="&#x16e;" horiz-adv-x="1282" d="M168 541v839h96v-833q0 -248 101.5 -367t267.5 -119q178 0 281.5 121t103.5 365v833h98v-823q0 -299 -137 -439.5t-352 -140.5q-201 0 -330 134.5t-129 429.5zM457 1593q0 74 52 125t134 51h2q80 0 131 -51t51 -125q0 -72 -53 -121t-131 -49q-80 0 -133 49t-53 121z M539 1593q0 -45 29.5 -78.5t72.5 -33.5q45 0 74.5 33.5t29.5 83t-29.5 82t-74.5 32.5h-2q-45 0 -72.5 -35t-27.5 -84z" />
<glyph unicode="&#x16f;" horiz-adv-x="1087" d="M158 412v571h96v-553q0 -367 262 -367q100 0 177 58.5t112 140.5q20 61 20 109v612h97v-743q0 -88 8 -240h-90l-6 174h-5q-43 -80 -130 -138.5t-207 -58.5q-55 0 -106.5 16.5t-107 59.5t-88 135.5t-32.5 223.5zM356 1278q0 78 54.5 132t138.5 54q78 0 131 -54t53 -132 q0 -76 -55 -128t-131 -52q-82 0 -136.5 52t-54.5 128zM436 1278q0 -47 32 -83t77 -36q49 0 80.5 36t31.5 85q0 53 -31.5 88t-82.5 35q-47 0 -77 -36t-30 -89z" />
<glyph unicode="&#x17d;" horiz-adv-x="1103" d="M70 0v66l831 1226v6h-764v82h889v-65l-833 -1227v-6h843v-82h-966zM319 1677h109l150 -151h4l145 151h102l-213 -223h-77z" />
<glyph unicode="&#x17e;" horiz-adv-x="825" d="M33 0v59l528 699q20 27 58 74t55 67v4h-598v80h717l-2 -65l-529 -697q-16 -25 -51 -70t-53 -67v-4h637v-80h-762zM219 1409h96l134 -205h4l131 205h92l-187 -283h-79z" />
<glyph unicode="&#x2c6;" horiz-adv-x="614" d="M82 1126l186 283h72l192 -283h-98l-127 205h-4l-129 -205h-92z" />
<glyph unicode="&#x2da;" horiz-adv-x="614" d="M102 1278q0 78 54.5 132t138.5 54q78 0 131 -54t53 -132q0 -76 -55 -128t-131 -52q-82 0 -136.5 52t-54.5 128zM182 1278q0 -47 32 -83t77 -36q49 0 80.5 36t31.5 85q0 53 -31.5 88t-82.5 35q-47 0 -77 -36t-30 -89z" />
<glyph unicode="&#x2dc;" horiz-adv-x="614" d="M80 1174q-2 82 31.5 130t91.5 48q35 0 123 -47q61 -31 86 -31q51 0 57 84h68q0 -172 -123 -172q-41 0 -115 41q-72 39 -94 39q-47 0 -58 -92h-67z" />
<glyph unicode="&#x2000;" horiz-adv-x="884" />
<glyph unicode="&#x2001;" horiz-adv-x="1769" />
<glyph unicode="&#x2002;" horiz-adv-x="884" />
<glyph unicode="&#x2003;" horiz-adv-x="1769" />
<glyph unicode="&#x2004;" horiz-adv-x="589" />
<glyph unicode="&#x2005;" horiz-adv-x="442" />
<glyph unicode="&#x2006;" horiz-adv-x="294" />
<glyph unicode="&#x2007;" horiz-adv-x="294" />
<glyph unicode="&#x2008;" horiz-adv-x="221" />
<glyph unicode="&#x2009;" horiz-adv-x="352" />
<glyph unicode="&#x200a;" horiz-adv-x="98" />
<glyph unicode="&#x2010;" horiz-adv-x="610" d="M61 520v86h488v-86h-488z" />
<glyph unicode="&#x2011;" horiz-adv-x="610" d="M61 520v86h488v-86h-488z" />
<glyph unicode="&#x2012;" horiz-adv-x="610" d="M61 520v86h488v-86h-488z" />
<glyph unicode="&#x2013;" horiz-adv-x="1024" d="M61 481v78h902v-78h-902z" />
<glyph unicode="&#x2014;" horiz-adv-x="2048" d="M61 481v78h1926v-78h-1926z" />
<glyph unicode="&#x2018;" horiz-adv-x="356" d="M82 963q27 109 79 253t79 191l67 10q-25 -66 -58.5 -203t-47.5 -231z" />
<glyph unicode="&#x2019;" horiz-adv-x="356" d="M82 963q25 66 58.5 203t47.5 231l119 20q-27 -109 -79 -253t-78 -191z" />
<glyph unicode="&#x201a;" horiz-adv-x="356" d="M47 -258q25 66 58.5 203t48.5 231l120 21q-27 -109 -79 -253.5t-78 -191.5z" />
<glyph unicode="&#x201c;" horiz-adv-x="600" d="M82 963q27 109 79 253t79 191l67 10q-25 -66 -58.5 -203t-47.5 -231zM326 963q27 109 79 253t78 191l68 10q-25 -66 -58.5 -203t-48.5 -231z" />
<glyph unicode="&#x201d;" horiz-adv-x="600" d="M82 963q25 66 58.5 203t47.5 231l119 20q-27 -109 -79 -253t-78 -191zM326 963q25 66 58.5 203t47.5 231l119 20q-27 -109 -79 -253t-79 -191z" />
<glyph unicode="&#x201e;" horiz-adv-x="600" d="M47 -258q25 66 58.5 203t48.5 231l120 21q-27 -109 -79 -253.5t-78 -191.5zM291 -258q25 66 58.5 203t47.5 231l121 21q-27 -109 -79 -253.5t-79 -191.5z" />
<glyph unicode="&#x2026;" horiz-adv-x="2048" d="M260 70q0 41 23.5 66.5t60.5 25.5t59.5 -25.5t22.5 -66.5q0 -39 -23.5 -66t-60.5 -27h-2q-35 0 -58.5 28t-21.5 65zM942 70q0 41 23.5 66.5t60.5 25.5t59.5 -25.5t22.5 -66.5q0 -39 -23.5 -66t-60.5 -27h-2q-35 0 -58.5 28t-21.5 65zM1624 70q0 41 23.5 66.5t60.5 25.5 t59.5 -25.5t22.5 -66.5q0 -39 -23.5 -66t-60.5 -27h-2q-35 0 -58.5 28t-21.5 65z" />
<glyph unicode="&#x202f;" horiz-adv-x="352" />
<glyph unicode="&#x2039;" horiz-adv-x="503" d="M61 516l293 369h101l-291 -369l293 -369h-103z" />
<glyph unicode="&#x203a;" horiz-adv-x="503" d="M47 885h103l292 -369l-292 -369h-101l291 369z" />
<glyph unicode="&#x205f;" horiz-adv-x="442" />
<glyph unicode="&#x20ac;" d="M27 532v76h118v27q0 41 5 110h-123v76h135q33 240 184 387q152 145 361 146q150 0 254 -68l-31 -76q-90 61 -230 62q-168 0 -284 -111q-119 -113 -158 -340h610v-76h-620q-4 -31 -4 -100v-37h624v-76h-620q27 -223 141 -344q119 -127 303 -127q139 0 260 76l27 -69 q-119 -90 -297 -91q-219 0 -365 152q-141 147 -165 403h-125z" />
<glyph unicode="&#x2122;" horiz-adv-x="1228" d="M68 1317v63h450v-63h-188v-494h-74v494h-188zM547 823l45 557h108l131 -356l39 -117h4q27 88 35 113l131 360h111l49 -557h-78l-26 379q-2 43 -6 119h-5q-2 -6 -45 -133l-129 -357h-84l-131 367q-4 18 -20.5 61.5t-20.5 61.5h-4q0 -33 -4 -119l-26 -379h-74z" />
<glyph unicode="&#xe000;" horiz-adv-x="985" d="M0 985h985v-985h-985v985z" />
</font>
</defs>
</svg>
